accademianazionaleschermaaccademianazionalescherma
» » Dane Donohue - Dane Donohue

Dane Donohue - Dane Donohue mp3 download


Tracklist Hide Credits

1 Casablanca
Backing Vocals – Don Henley, J.D. Souther*, Stevie Nicks, Timothy B. SchmitBass – Jeff D'Angelo*Drums – Andy Smith Electric Piano – David GetreauGuitar – Larry CarltonPiano – Jai WindingVibraphone, Percussion – Victor FeldmanWritten-By – D. Donohue*, D. Getreau*, M. Fisher*
4:01
2 Dance With The Stranger
Acoustic Guitar – Dane DonohueBacking Vocals – Herb PedersenBass – Bob GlaubDrums – David KemperElectric Guitar – Larry CarltonPiano, Electric Piano – Jai WindingWritten-By – D. Donohue*, D. Getreau*, M. Fisher*
4:00
3 What Am I Supposed To Do
Acoustic Guitar – Dane DonohueBacking Vocals – Don Henley, J.D. Souther*Bass – Jeff D'Angelo*Drums – Andy Smith Electric Guitar – Jay GraydonPiano – Jai WindingWritten-By – D. Donohue*
3:40
4 Woman
Backing Vocals – Angelle Trosclair, J.D. Souther*, Stevie NicksBass – Jeff D'Angelo*Drums – Steve GaddElectric Piano, Percussion – Victor FeldmanGuitar – Larry CarltonPiano – Jai WindingWritten-By – D. Donohue*
3:52
5 Where Will You Go
Backing Vocals – Bill Champlin, Tom KellyBass – Scott Edwards Drums – Ed Greene Guitar – Dane DonohuePiano, Backing Vocals – Jai WindingWritten-By – D. Donohue*
3:38
6 Freedom
Backing Vocals – Tom KellyBass – Chuck RaineyDrums – Ed Greene Percussion – Victor FeldmanPiano, Electric Piano – Jai WindingSaxophone – Ernie WattsWritten-By – D. Donohue*, D. Getreau*, M. Fisher*
3:04
7 Can't Be Seen
Backing Vocals – Angelle Trosclair, Bill Champlin, Tom KellyBass – Mike PorcaroDrums – Ed Greene Guitar – Jay Graydon, Steve LukatherPercussion – Victor FeldmanPiano – Jai WindingSaxophone – Ernie WattsWritten-By – D. Donohue*, D. Getreau*, M. Fisher*
3:00
8 Whatever Happened
Backing Vocals – Dane Donohue, Tom KellyBass – Scott Edwards Drums – Ed Greene Guitar – Steve LukatherPercussion – Steve FormanPiano – Jai WindingWritten-By – D. Donohue*
3:01
9 Tracey
Backing Vocals – Dane Donohue, Tom KellyBass – Chuck RaineyDrums – Ed Greene Electric Piano, Clavinet, Arranged By [Horns], Conductor – Jai WindingGuitar – Jay Graydon, Steve LukatherSaxophone – Ernie WattsTenor Saxophone, Flute – Gary Herbig, Tom SavianoTrombone – Dick HydeTrumpet, Flugelhorn – Chuck Findley, Steve MadaioWritten-By – D. Donohue*, D. Getreau*, M. Fisher*
3:35
10 Congratulations
Bass – Jeff D'Angelo*Drums – Andy Smith Electric Piano, Conductor – Jai WindingPiano, Arranged By [Horns] – David GetreauTenor Saxophone, Flute – Gary Herbig, Tom SavianoTrombone – Dick HydeTrumpet, Flugelhorn – Chuck FindleyTrumpet, Flugelhorn, Flute – Steve MadaioWritten-By – D. Donohue*, D. Getreau*, M. Fisher*
2:53

Companies, etc.

  • Manufactured By – Sony Music Entertainment (Japan) Inc.
  • Phonographic Copyright (p) – Sony Music Entertainment Inc.
  • Copyright (c) – Sony Music Entertainment Inc.

Credits

  • Arranged By – Andy Smith , Dane Donohue, David Getreau, Jai Winding, Jeff D'Angelo*
  • Engineer – Charles Faris, Deni King, Jay Messina, Paul Grupp, Steve Hodge, Steve Smith
  • Engineer [Assistant] – David Rideau*
  • Executive-Producer – David Krebs, Steven Leber*
  • Liner Notes – 渚十吾*
  • Mastered By – Wally Traugott
  • Mixed By – Steve Hodge, Terence Boylan
  • Producer – Jai Winding (tracks: 6, 7, 9), John Boylan (tracks: 5, 8), Steve Hodge (tracks: 6, 7, 9), Terence Boylan
  • Vocals – Dane Donohue

Notes

℗&© 1978 Sony Music Entertainment Inc.
Manufactured by Sony Music Entertainment (Japan) Inc.
Recorded at Westlake Audio, Los Angeles, CA
Additional Recording at Record Plant, Los Angeles, CA; Record Plant, New York; Bearsville Sound, New York; Longview Farm, North Brookfield, Massachusetts & Capitol Studios, Hollywood, CA,
Mixed at Westlake Audio, Los Angeles, CA
Mastered at Capitol Studios, Hollywood, CA

Barcode and Other Identifiers

  • Rights Society: 4988009622620
  • Rights Society: JASRAC

Other versions

Category Artist Title (Format) Label Category Country Year
JC 34278 Dane Donohue Dane Donohue ‎(LP, Album) Columbia JC 34278 US 1978
SICP 8049 Dane Donohue Dane Donohue ‎(CD, Album, RE) Sony Records Int'l SICP 8049 Japan 2002
SBP 237253 Dane Donohue Dane Donohue ‎(LP, Album) CBS SBP 237253 Australia 1978
MHCP 764 Dane Donohue Dane Donohue ‎(CD, Album, Ltd, RE, RM, Vin) Sony Records Int'l MHCP 764 Japan 2005
JC 34278 Dane Donohue Dane Donohue ‎(LP, Album, Promo) Columbia JC 34278 US 1978


Dane Donohue - Dane Donohue mp3 download
Performer: Dane Donohue
Genre: Rock
Title: Dane Donohue
Country: US
Released: 1992
Style: Soft Rock
MP3 version ZIP size: 1539 mb
FLAC version RAR size: 1614 mb
Rating: 4.3
Votes: 369
Other Formats: MP4 VOX MOD WAV TTA RA ASF

Keramar
foobar2000 1.3.17 / Dynamic Range Meter 1.1.1log date: 2019-04-16 18:39:32--------------------------------------------------------------------------------Analyzed: Dane Donohue / Dane Donohue [JP 1992 CD]--------------------------------------------------------------------------------DR Peak RMS Duration Track--------------------------------------------------------------------------------DR11 -0.17 dB -15.19 dB 4:04 01-CasablancaDR11 -1.29 dB -15.80 dB 4:03 02-Dance With The StrangerDR12 -0.63 dB -16.08 dB 3:44 03-What Am I Supposed To DoDR12 0.00 dB -15.81 dB 3:56 04-WomanDR13 -1.40 dB -19.14 dB 3:44 05-Where Will You GoDR12 -0.25 dB -16.43 dB 3:06 06-FreedomDR12 -1.87 dB -17.31 dB 3:04 07-Can't Be SeenDR13 0.00 dB -15.41 dB 3:05 08-Whatever HappenedDR13 0.00 dB -15.46 dB 3:36 09-TraceyDR14 -1.40 dB -19.19 dB 2:55 10-Congratulations--------------------------------------------------------------------------------Number of tracks: 10Official DR value: DR12Samplerate: 44100 HzChannels: 2Bits per sample: 16Bitrate: 651 kbpsCodec: ALAC================================================================================