accademianazionaleschermaaccademianazionalescherma
» » Chuck Stanley - The Finer Things In Life

Chuck Stanley - The Finer Things In Life mp3 download


Tracklist

The Finer Things In Life 3:44
Jammin' To The Bells 4:44
My All And All 3:48
Real Soon 4:10
When It All Falls Down 3:56
Day By Day 3:46
Love Toy 3:36
Never Gonna Let You Go 3:39
Burning Up 4:39
Make You Mine Tonight 4:44

Versions

Category Artist Title (Format) Label Category Country Year
DEF 450483 1 Chuck Stanley The Finer Things In Life ‎(LP, Album) Def Jam Recordings DEF 450483 1 Europe 1987
DEF 450483 2 Chuck Stanley The Finer Things In Life ‎(CD, Album) Def Jam Recordings DEF 450483 2 Europe 1987
FCT-40514, FCT 40514 Chuck Stanley The Finer Things In Life ‎(Cass, Album) Def Jam Recordings, Def Jam Recordings, Columbia, Columbia FCT-40514, FCT 40514 Canada 1987
DEF 450483 1 Chuck Stanley The Finer Things In Life ‎(LP) Def Jam Recordings DEF 450483 1 UK 1987
BFC 40514, 40514 Chuck Stanley The Finer Things In Life ‎(LP, Album) Columbia, Columbia, Def Jam Recordings, Def Jam Recordings BFC 40514, 40514 US 1987
BFC 40514, FC 40514 Chuck Stanley The Finer Things In Life ‎(LP, Album) Columbia, Def Jam Recordings, Def Jam Recordings BFC 40514, FC 40514 US 1987
PROA-226 Chuck Stanley The Finer Things In Life ‎(CD, Album, RE) Universal Music, Def Jam Recordings PROA-226 Japan 2008


Chuck Stanley - The Finer Things In Life mp3 download
Performer: Chuck Stanley
Genre: Soulful music
Title: The Finer Things In Life
Country: Europe
Released: 1987
Style: Soul
MP3 version ZIP size: 1603 mb
FLAC version RAR size: 1888 mb
Rating: 4.2
Votes: 381
Other Formats: MP3 MP1 MIDI FLAC AUD DMF DXD

Rich Vulture
foobar2000 1.3.17 / Dynamic Range Meter 1.1.1log date: 2019-03-07 22:43:35--------------------------------------------------------------------------------Analyzed: Chuck Stanley / The Finer Things In Life--------------------------------------------------------------------------------DR Peak RMS Duration Track--------------------------------------------------------------------------------DR13 -2.88 dB -17.33 dB 3:47 01-The Finer Things In LifeDR14 -0.76 dB -17.69 dB 4:47 02-Jammin' To The BellsDR14 -0.80 dB -16.97 dB 3:51 03-My All And AllDR14 -0.61 dB -16.87 dB 4:12 04-Real SoonDR14 -1.30 dB -17.97 dB 3:57 05-When It All Falls DownDR16 -0.26 dB -17.64 dB 3:48 06-Day By DayDR14 -0.97 dB -16.45 dB 3:40 07-Love ToyDR11 -3.19 dB -17.07 dB 3:40 08-Never Gonna Let You GoDR13 -2.06 dB -16.51 dB 4:41 09-Burning UpDR14 -0.43 dB -17.69 dB 4:44 10-Make You Mine Tonight--------------------------------------------------------------------------------Number of tracks: 10Official DR value: DR14Samplerate: 44100 HzChannels: 2Bits per sample: 16Bitrate: 897 kbpsCodec: ALAC================================================================================